JS Bach: Grosse Orgelwerke. 6 No. Genres (none) Other tags (none) See all tags. -  Alleluja. 0000001820 00000 n Magnificat In D (BWV 243) - D. "Virga Jesse floruit" Johann Sebastian Bach (1685-1750) a dddd12 8 Soprano I nnnnnnnnnnnn b dddd128 Bass nnnnnnnnnnnn a dddd12 8 kkz k k k k k k kz k k k k k kz k k k k k k k k k k k kz k k t kz k k k k k k kz k t kz k k t kz b dddd12 8 Continuo k kk k k kk kk k kk k kz k kk k k kk k k k k kkzz Vi rga- Jes se- flo-3 a and is a fragment of a longer Christmas hymn that was printed in Gottfried Vopelius' Neu Leipziger Gesangbuch. Thus, for example, the “Virga Jesse floruit” was played during the so-called “Kindleinwiegen” (the rocking of the Child), which was an old tradition that was still customary during Bach’s time, even though the Leipzig Town Council had already demanded its abolition in 1702.1 Stream ad-free or purchase CD's and MP3s now on Amazon.com. Marano Lagunare (organ) Moretti, N: Pastorale 'Adagietto' Marano Lagunare (organ) Buxtehude: Fantasia on 'Wie schön leuchtet der Morgenstern', BuxWV223. Anton Bruckner - Virga Jesse (Marienmotette) (WAB 52)Chor>SATB Alleluia Ave Maria Virga Jesse Floruit Arranged For String Quintet 2 Violins 2 Violas 1 Cello. Entdecken Sie Magnificat in D Major, BWV 243: Virga jesse floruit von Bach Collegium Stuttgart, Figuralchor Gedächtniskirche, Helmuth Rilling, Romy Gundermann, Hildegarde Rütgers, Kurt Equiluez, Erich Wenk, Willy Schnell bei Amazon Music. 0000003058 00000 n clarinet added in 1791. Virga Jesse floruit: Virgo Deum et hominem genuit: pacem Deus reddidit, in se reconcilians ima summis. Complete Score 33 0 obj << /Linearized 1 /O 35 /H [ 1180 262 ] /L 680481 /E 141228 /N 10 /T 679703 >> endobj xref 33 37 0000000016 00000 n In stock. The brief gradual text translates something as follows: "The rod of Jesse flourished; a virgin produced both God and man: and God restored peace, reconciling both lowest and highest within Himself. Anton Bruckner; William Byrd Text and translations used in a Christmas cantata by Johann Kuhnau; included in Magnificat in E-flat major, BWV 243a by Johann Sebastian Bach; In addition, the Tree of Jesse is also referenced in the medieval series of lyrical poems known as the Cantigas de Santa Maria Virga Jesse floruit Alt ernative. Virga Jesse Floruit for the Hokkaido Euphonium/ Tuba Camp arranged by Mark Nelson Euph. Alleluia at the Feast of the Annunciation . The brief gradual text translates something as follows: “The rod of Jesse flourished; a virgin produced both God and man: and God restored peace, reconciling both lowest and highest within Himself. View whole album. ms. Bach P 153), where Bach used the movement for the second time – now in A 0000003496 00000 n cresc. • Page visited 471 times • Powered by MediaWiki Virga Jesse Alt ernative. Given a piece of music, it is interesting to count how many times each of the individual twelve musical notes is played, and understand their relative weight, or importance, in the piece. Ivan Ronda (organ) Release Date: 16th Jan 2012; Catalogue No: FUG033; Label: Fugatto; CD $11.75. : Upon la mi re. Molemmat ovat kuorolle ja orkesterille sävellettyjä teoksia. Listen Download MP3 (2.81 Mo) 91x⬇ 447x View Download PDF: "Virga Jesse Floruit" (WAB 52) for Wind Ensemble (5 pages - 176.93 Ko) 357x⬇ CLOSE Now that you have this PDF score, member's artist are waiting for a feedback from you in exchange of this free access. Virga Jesse Floruit Vol. J.S. 4 0000064256 00000 n The early E-flat version of J. S. Bach's *Magnificat BWV 243 has a fragmentary duet for soprano and bass, "Virga Jesse floruit, Emanuel noster apparuit", unrelated but for the incipit. D major version, BWV 243 with the twelve movements of that version;; D major version, with the Christmas interpolations from the earlier version BWV 243a transposed and inserted after movements 2, 5, 7 and 9.; E flat major version, BWV 243a. Bach komponierte das Es-Dur Magnificat BWV 243a (älter als die bekanntere und überarbeitete D-Dur Version BWV243, und versehen mit einer leicht geänderten Instrumentalisierung) für seinen ersten Weihnachtstag in Leipzig. Stream ad-free or purchase CD's and MP3s now on Amazon.co.uk. sempre cresc. Tuba Tuba 1 2 1 2 Anton Bruckner (1824-1896) Alla Breve cre c. sempre cre c. sempre cre c. senpre cresc. 1723-07-02, rev. WAB 52 I-Catalogue Number I-Cat. Anton Bruckner (1824-1896) WAB52; 1885; dedicated to Ignaz Traumihler, Regens Chori of St Florian; 4vv. anon. View full details; Virga Jesse Floruit Vol. Magnificat in D (BWV 243) - D Virga Jesse floruit midi soprano.mid Musical Notes Distribution. Contents. 6 Download PDF Cite this Item xml [Introduction] [Introduction] (pp. Listen to Christmas Magnificats by Various Artists on Apple Music. Virga Jesse floruit is one of Bruckner’s most famous pieces; it is sung at Christmastime by choirs, amateur and pro-fessional, around the globe. Anton Bruckner; William Byrd Text and translations. sempre cresc. No. Download all ALAC £0.55. 0000054695 00000 n Virga Jesse floruit: Language: Latin: Dedication: 100th anniversary of the Linz diocese: Performed: 8 December 1885 (): Vienna: Published: 1896 (): Vienna: Vocal: SATB choir: Virga Jesse (The branch from Jesse), WAB 52, is a motet by the Austrian composer Anton Bruckner. In stock. Contents. Virga Jesse floruit Emanuel noster apparuit Induit carnem hominis Fit puer delectabilis. PDF Documents for Cantus Contributors; Citation Style; References; Alleluia Virga Jesse floruit virgo . Anonymous - liturgical . 0000108271 00000 n Alleluia. View Download PDF: Complete sheet music (4 pages - 89.07 Ko) 3773x⬇ CLOSE For 20 years we provide a free and legal service for free sheet music without asking you anything in exchange. +49 (0)9306 985220 Stream songs including "Magnificat in D Major, BWV 243a: I. Magnificat anima mea", "Magnificat in D Major, BWV 243a: II. Download all FLAC £0.55. Stream ad-free or purchase CD's and MP3s now on Amazon.com. Bach: Magnificat In E-Flat Major, BWV 243a - 13. / Vivaldi: Magnificat / Nisi Dominus / Nulla in Mundo Pax Sincera etc. Beidermeier. Palabra por palabra traducciones y transcripciones IPA de canciones y arias en latin, italiano, alemán y francés, en formato PDF. Add CD to basket . Alleluia Virga Jesse floruit virgo deum et hominem genuit pacem deus reddidit in se reconcilians ima summis Manuscript Reading Full Text (MS spelling): Alleluia Virga iesse floruit virgo deum et hominem genuit pacem deus reddidit in se reconcilians yma summis Sort by: Bach: Magnificat In E-Flat Major, BWV 243a - 13. Folio: 348. Alleluja. composer. � Listen to Magnificat, BWV 243a: XIII. Byrd also apparently intended the piece as the Alleluia for the Votive Mass of the Blessed Virgin during Paschal Time, but here the order of the verses Ave Maria and Virga Jesse is reversed – a reversal which cannot be done with the piece as written. Magnificat in E-Flat Major, BWV 243a: Virga Jesse floruit: 3:21 : Magnificat in E Flat, Missa in F: Johann Sebastian Bach; Monteverdi Choir, English Baroque Soloists, Sir John Eliot Gardiner: 2017-10-13; Soli Deo Gloria: SDG 728: Relationships. 0000127118 00000 n The song of the angels is based on the Christmas interpolation Virga Jesse Floruit of his Magnificat in E-flat major, BWV 243a. Mode: 8. Title Graduale Name Translations エサイの枝は芽を出し: Authorities WorldCat; Wikipedia; VIAF: 174271665; LCCN: n94017900; GND: 300030142; BNF: 13920754d: Composer Bruckner, Anton: Opus/Catalogue Number Op./Cat. Bach - Virga Jesse floruit / Magnificat, Es-dur BWV 243a (Ton Koopman) - Duration: 3:26. protestant7 31,063 views. Emmanuel Music continues to perform cycles of large-scale and chamber works by Bach, Handel, Mozart, Schubert, Brahms, Debussy, Haydn, Schoenberg, Weill, Wolf, Medelssohn, and Schumann under Artistic Director … Johann Sebastian Bach sävelsi kaksi Magnificat-teosta (Neitsyt Marian ylistysvirsi), joista myöhempi, D-duuriin sävelletty, BWV 243 pohjautuu aikaisempaan Es-duuri versioon (BWV 243a). ���e05��Ȣg�$�+0�mW` 3:26. History. IAB 136 Key E minor Movements/Sections Mov'ts/Sec's: 1 gradual No. 0000003701 00000 n Number of voices: 4vv Voicing: SATB (brief T & B divisi) Genre: Sacred, Motet, Alleluia verse for the Annunciation in Eastertide (also for Votive Masses) Language: Latin Instruments: A cappella . Rounded binary form in their preclassical keyboard works. Check out Magnificat in D Major, BWV 243: Virga jesse floruit by Bach Collegium Stuttgart, Figuralchor Gedächtniskirche, Helmuth Rilling, Romy Gundermann, Hildegarde Rütgers, Kurt Equiluez, Erich Wenk, Willy Schnell on Amazon Music. Performances of Johann Sebastian Bach's Magnificat come in three formats: . 1. �ʅIܐ��Anع4�Hti�|�C�,�vh�Y�kمI����_������4:V/�]�0u�%-����iY�%�s:�_#�o�����eY�,���5�ާ�|Y�|R9w�B[YrYZ�~���+ܐb�� �4����~E�^�� Q�!z���5�ˡ�1.�#5���z:��� The pdf file contains score and parts The sound sample is an electronic preview Original words: Ave Maria, gratia plena, Dominus tecum; benedicta tu in mulieribus, Alleluia. 0.0/10 Emmanuel Music is a Boston-based ensemble of singers and instrumentalists founded in 1970 by Craig Smith to perform the complete sacred cantatas of J.S. Magnificat in E-Flat Major, BWV 243a: Virga Jesse floruit Magnificat in E-Flat Major, BWV 243a: Suscepit Israel Magnificat in E-Flat Major, BWV 243a: Sicut locutus est Alleluja. " Genre: Al. Usually despatched within 1 working day . / Vivaldi: Magnificat / Nisi Dominus / Nulla in Mundo Pax Sincera etc.. Download J.S. Virga Jesse floruit Soli (SATB), Coro (SATB) 2 Clarini, Timpani, 2 Violini, Viola e Basso continuo Erstausgabe/First edition herausgegeben von/edited by Arne Thielemann. Although written in the stille antico, this rather dramatic motet is nearly symphonic. 0000137376 00000 n Virga Jesse (fragment) S, B, continuo (after Esurientes implevit bonis) Year/Date of Composition Y/D of Comp. Listen to Christmas Magnificats by Various Artists on Apple Music. 0000001087 00000 n Wish You Were Here - … Office/Mass: MI. 0000013808 00000 n 0000044720 00000 n Alleluja. H���M�G@��+J>�h*�""����H�˴���xxX3�V���oe}�+h�#Y�:2�dUEe��N����!�1I���O��Ӭ�l����鷏��=�?�ǻ���܄����Nw��~�}�p�����C��C�]���ٿ~�bN/��'�w��߿�ힿ|||ٽ�����������y�ɣ��5�9ǣ�Nc9iW���~���ݼ�������C������R+O����u[��Ӥ��ͬ|��?�{>y���^�?��w?v?��w� �;�|�C��?F������G ! Bruckner's Virga jesse Floruit is an example of this. 0000034230 00000 n 2 Latin text. Stream songs including "Magnificat in D Major, BWV 243a: I. Magnificat anima mea", "Magnificat in D Major, BWV 243a: II. Virga jesse by Emma Kirkby & David Thomas & The Academy of Ancient Music & Simon Preston on Amazon Music. External links. Add CD to basket . This music sheet has been read 4353 times and the last read was at 2021-01-16 20:40:04. 0000044476 00000 n 0000003762 00000 n Digital booklet (PDF) Virga Jesse floruit. trailer << /Size 70 /Info 31 0 R /Root 34 0 R /Prev 679693 /ID[<2c2d39378cc3651748c0b307d49b0a12>] >> startxref 0 %%EOF 34 0 obj << /Type /Catalog /Pages 30 0 R /Metadata 32 0 R /PageLabels 29 0 R >> endobj 68 0 obj << /S 88 /L 179 /Filter /FlateDecode /Length 69 0 R >> stream 0000127040 00000 n Browse: Bach, J S - Virga Jesse floruit (Insert Movement for the Magnificat from BWV243a) This page lists all sheet music of Virga Jesse floruit (Insert Movement for the Magnificat from BWV243a) by Johann Sebastian Bach (1685-1750). author of text. Johann Sebastian Bach: Virga Jesse floruit - Weihnachtlicher Einlagesatz aus dem Magnificat, BWV 243 - Score, solo part, audio file (pdf/mp3 download). 0000073989 00000 n 0000044698 00000 n Virga Jesse floruit DR9 -6.99 dB -21.29 dB 1:56 30-Magnificat in E-Flat Major, BWV 243a: XIII. Virga Jesse floruit: Virgo Deum et hominem genuit: pacem Deus reddidit, in se reconcilians ima summis. Polyphony, Stephen Layton (conductor) Download all MP3 £0.55. Check out J.S. 0000074012 00000 n Bach: Magnificat in E flat, BWV 243a - Virga jesse floruit by Philip Pickett & New London Consort & Michael George & Catherine Bott on Amazon Music. Virga Jesse floruit is one of Bruckner's most famous pieces; it is sung at Christmastime by choirs, amateur and professional, around the globe. Virga Jesse floruit: Virgo Deum et hominem genuit: pacem Deus reddidit, in se reconcilians ima summis. (-) - !N/!N/!N - 74×⇩ - Gilbertdh, PDF typeset by editor 2. Bach. 0000084483 00000 n Settings by composers. �X�UeI�NJ'�����dt����N�;I;�ntA��@C �s�(�tJLM�MtJt�t�t*���N�NB'���I�tR:1��F'�N����/����/����/����/����/����/7�g����I�Н^�p|�������c����������a8V ];���;\�6}tX��ph��˶���0�A=icA�2�����o�|k_�yR ��Mu�����lxК�ͻ���}x������ɟ�;�t枇�!=�3�!Ow����CLC+s�%Wh�������C� �����b��1x!. 0000044273 00000 n Word-for-word translations and IPA transcriptions of songs and arias in Latin, Italian, German, and French in PDF format. Title Composer Senfl, Ludwig: I-Catalogue Number I-Cat. 0000023874 00000 n Fast and reliable delivery worldwide. The text is "Virga Jesse floruit, Emanuel noster apparuit, Induit carnem Hominis, Fit puer delectabilis. In the first part on the verse Virga jesse floruit (bars 1-20) Bruckner used twice the Dresdner Amen on the word floruit (bars 7-9 and 17-19). J.S. *#608756 - 0.24MB, 12 pp. 0000001421 00000 n Bach: Magnificat, BWV 243a for free, and see the artwork, lyrics and similar artists. Cantus ID: g01417. It sets the gradual Virga Jesse floruit for unaccompanied mixed choir. ILS 125 Movements/Sections Mov'ts/Sec's: 2 parts: Virga Jesse floruit in qua flos apparuit Jam [or "Iam"] patet in virgine semine conceptus First Pub lication. Virga jesse song on Gaana.com and listen Bach, J.S. Corelli: Concerto grosso Op. Manuel Tomadin (organ) Release Date: 17th Dec 2012; Catalogue No: FUG040; Label: Fugatto; CD $12.00. 8 sempre seapre ffsenpre s empre $$ s empre . Unser Mund sei voll Lachens (May our mouth be full of laughter), BWV 110, is a church cantata by Johann Sebastian Bach.He composed the Christmas cantata in Leipzig for Christmas Day and first performed it on 25 December 1725.. Bach composed the cantata in his third year as Thomaskantor in Leipzig.He used a text by Georg Christian Lehms, which was published already in 1711. 2 Carus 10.026 Vorwort Bekanntlich gibt es vom Lobgesang der Maria, dem soge-nannten Magnificat in der Fassung von Johann Sebastian Bach zwei Versionen – die allseits bekannte spätere Fassung in D-Dur (BWV 243) von ca. Check out J.S. H�b```f``�����p�2� ��@Q� ;*;,��Y�c�ƛ�[��8Hn[r�F-x�x-�b%��r� �1����ם]� �q�t�.���ٓ�4���g���� ,z��1faC ��F���Œ�`c��(0�@,;dL�15��7�m6��9fF=�*���y"�D�I4w� �#�)W�&̓�Y+ޤx����E�"��c�5�@Jv�d��M�3��eZ(�ړ�L���˴�)� ��:::: � 0000129795 00000 n h�SqN7��*�VV@%����he�)��ѩҩz��P�߷3�C-�4D�I��@c��n ��2�2�2�2� 1723-12-25 (with 4 Christmas inserts) First Perf ormance. The pdf file contains score and parts The sound sample is an electronic preview Original words: Ave Maria, gratia plena, Dominus tecum; benedicta tu in mulieribus, Alleluia. ����Ϲ���x3�ۄ�AK����P-@��b��EL!�"$.0lgPb`�t``y��!D���ϋ� Bach: Magnificat in E flat, BWV 243a - Virga jesse floruit by Philip Pickett & New London Consort & Michael George & Catherine Bott on Amazon Music. 0000034208 00000 n �{G�AhZ��&V�޳�� |��s�e���&���H3�7@� �(� endstream endobj 69 0 obj 150 endobj 35 0 obj << /Type /Page /Parent 30 0 R /Resources 36 0 R /Contents [ 45 0 R 47 0 R 49 0 R 51 0 R 55 0 R 57 0 R 59 0 R 61 0 R ] /MediaBox [ 0 0 612 792 ] /CropBox [ 0 0 612 792 ] /Rotate 0 >> endobj 36 0 obj << /ProcSet [ /PDF /Text ] /Font << /TT2 41 0 R /TT4 37 0 R /TT6 38 0 R /TT8 52 0 R >> /ExtGState << /GS1 64 0 R >> /ColorSpace << /Cs6 43 0 R >> >> endobj 37 0 obj << /Type /Font /Subtype /TrueType /FirstChar 32 /LastChar 117 /Widths [ 250 333 0 0 0 0 0 0 333 333 0 0 250 333 250 0 500 500 500 500 500 500 500 500 500 500 0 0 0 0 0 0 0 722 667 667 0 611 0 0 0 333 389 0 0 0 0 0 0 0 0 556 0 0 722 0 0 0 0 0 0 0 0 0 0 444 500 444 500 444 333 500 500 278 278 0 278 778 500 500 500 0 333 389 278 500 ] /Encoding /WinAnsiEncoding /BaseFont /FCOJBM+TimesNewRoman /FontDescriptor 39 0 R >> endobj 38 0 obj << /Type /Font /Subtype /TrueType /FirstChar 49 /LastChar 122 /Widths [ 274 278 0 0 0 0 0 274 0 0 0 0 0 0 0 0 0 0 0 0 0 0 0 0 0 0 0 0 0 0 0 0 0 0 0 0 0 0 0 0 0 0 0 0 0 0 0 0 520 564 0 180 144 0 214 0 0 0 238 0 0 229 214 0 0 0 210 208 0 0 0 0 0 93 ] /Encoding /WinAnsiEncoding /BaseFont /FCOJMI+NWCV15 /FontDescriptor 42 0 R >> endobj 39 0 obj << /Type /FontDescriptor /Ascent 891 /CapHeight 0 /Descent -216 /Flags 34 /FontBBox [ -568 -307 2028 1007 ] /FontName /FCOJBM+TimesNewRoman /ItalicAngle 0 /StemV 94 /FontFile2 62 0 R >> endobj 40 0 obj << /Type /FontDescriptor /Ascent 891 /CapHeight 0 /Descent -216 /Flags 34 /FontBBox [ -558 -307 2034 1026 ] /FontName /FCOILG+TimesNewRoman,Bold /ItalicAngle 0 /StemV 160 /FontFile2 63 0 R >> endobj 41 0 obj << /Type /Font /Subtype /TrueType /FirstChar 32 /LastChar 117 /Widths [ 250 0 555 0 0 0 0 0 333 333 0 0 0 333 250 0 500 500 500 500 500 500 500 500 500 500 0 0 0 0 0 0 0 0 667 0 722 0 0 0 0 389 500 0 0 944 0 0 0 0 0 0 0 0 722 1000 0 0 0 0 0 0 0 0 0 500 0 444 0 444 333 500 0 278 0 0 278 0 556 500 0 0 444 389 333 556 ] /Encoding /WinAnsiEncoding /BaseFont /FCOILG+TimesNewRoman,Bold /FontDescriptor 40 0 R >> endobj 42 0 obj << /Type /FontDescriptor /Ascent 1060 /CapHeight 0 /Descent -330 /Flags 32 /FontBBox [ -66 -321 870 1060 ] /FontName /FCOJMI+NWCV15 /ItalicAngle 0 /StemV 0 /FontFile2 67 0 R >> endobj 43 0 obj [ /ICCBased 65 0 R ] endobj 44 0 obj 9968 endobj 45 0 obj << /Filter /FlateDecode /Length 44 0 R >> stream Stream ad-free or purchase CD's and MP3s now on Amazon.com. The difference with the previous format is not only the … 0000003740 00000 n Title: Virga Jesse, WAB 52 Composer: Anton Bruckner. DR13 -6.09 dB -23.00 dB 3:09 29-Magnificat in E-Flat Major, BWV 243a: XII. Position: 3. 0000001180 00000 n J.S. Sequence: 2. For S B, F major, 12/8. Et exultavit" and more. Werbefrei … Virga de Jesse* 830339: 5 : V A M : Ave decus virgineu.. 200449: 6 : M I: Eia pervigiles dom.. 100116: 7 : M A 1.1 : Gaude fidelis cont.. 201901: 8 : M A 1.2 : Cui Eva oboedivit .. 200960: 9 : … by 1750 there were about 25 players, strings, 2 ob, 2 bssn, 2 hn, 1 fl harpsichord sometimes trumpet and timpani. 0000002838 00000 n Gilbertdh (2020/2/7), Content is available under the Creative Commons Attribution-ShareAlike 4.0 License Virga Jesse floruit from Philippe Herreweghe's J.S. Usually despatched within 1 working day. Bach: Magnificat In E-Flat Major, BWV 243a - 13. (The stem of Jesse hath flourished, Our Emanuel hath appeared, And hath put on human flesh, And become a lovely child, Alleluja!) 1. Composed in 1885, the text of Virga Jesse floruit is based on Isaiah 11, establishing Jesus’ place in the lineage of King David (Jesse was David’s father). No. 0000054717 00000 n %PDF-1.3 %���� Add CD to basket . Virga Jesse Floruit Vol. Classical Symphony. … Kostenlose Noten, alle mit Hörbeispiel und Einzelstimmentrainer. �*���I�dt2:��N�N�;���� ˬ�i��!�����M� F�D�L�L�L�L�B�B'�eU�AR���I�t2:�s��|0O>�Ҫz+?,���hȠ!�ra���N�����N�N�N�N��ѩ�I�$t: ��NJ'�2��d�I�a�F�aF�a�F�a�F�a�F�a��yF_�1�o��_1'��� C(a:�����Wq. of the Christmas story. 0000064278 00000 n ��g\S�12�@ěH�� zFX��\���������힨-)�9�$̒���%_���i�4�,-s?�ߏz~C Euph. Alleluia. In stock. Teos on kestoltaan tavanomaisen kantaatin pituinen eli noin 25 minuuttia. Check out J.S. 8 in G minor 'fatto per la notte di Natale' Manuel Tomadin (organ) Pasquini, B: Introduzione e pastorale. • Switch back to classic skin, Creative Commons Attribution-NonCommercial-ShareAlike 4.0, http://imslp.org/index.php?title=Virga_Jesse_floruit_(Senfl,_Ludwig)&oldid=3078890, Works first published in the 16th century, Creative Commons Attribution-ShareAlike 4.0 License, Jam [or "Iam"] patet in virgine semine conceptus. Settings by composers. Virga jesse MP3 Song by Emma Kirkby from the Latin movie Bach, J.S. Alleluia. 0000001649 00000 n Suscepit Israel DR11 -4.46 dB -19.97 dB 1:38 31-Magnificat in E … movement “Virga Jesse floruit,” it was fortunately possi-ble to fall back on the Christmas Cantata Unser Mund sei voll Lachens BWV 110 of 1724 (Staatsbibliothek zu Ber-lin – Preußischer Kulturbesitz, Musikabteilung mit Men-delssohn-Archiv, shelf mark: Mus. ;4������%�mM��X�9ؘ��Y��E�"X/��Xs��r�yc���c�-�1��}����~�p�ۊc =�`&���y��m��`c�v Et exultavit" and more. Virga Jesse floruit: Virgo Deum et hominem genuit: pacem Deus reddidit, in se reconcilians ima summis. 10 0000002624 00000 n 0000013830 00000 n ... Scarlatti, CPE Bach, Jc Bach. serpre cresc. External websites: Original text and translations Feast: De BMV. 0000023851 00000 n Virga Jesse Floruit: Freiburger Vokalensemble, Wolfgang Schäfer: 3:39: Virga Jesse Floruit, WAB 52: Anton Bruckner: 4:04: Virga Jesse in E minor, WAB 52: St. Bride’s Church Choir, Fleet Street, Matthew Morley, Robert Jones: 3:24: Virgo Jesse floruit [unknown] 4:03: Work information Type: Motet Key: E minor Rating. Source: Porrentruy, Bibliothèque cantonale jurassienne, 18 . 0000002269 00000 n The pdf file contains score and parts The sound sample is an electronic preview Original words: Ave Maria, gratia plena, Dominus tecum; benedicta tu in mulieribus, Alleluia. J. S. Bach – C. P. E. Bach – C. F. G. Schwencke (1805) – G. Poelchau (1824) – Königliche Bibliothek zu Berlin (1841), jetzt Staatsbibliothek zu Berlin – Preußischer Kulturbesitz, Musikabteilung WZ-Beschreibung: Weiß Nr. Preview alleluia ave maria virga jesse floruit arranged for string quintet 2 violins 2 violas 1 cello is available in 6 pages and compose for intermediate difficulty. Showing 1 - 10 of 12 results. 0000001442 00000 n 97 Bemerkungen: erste Fassung in Es-Dur; es fehlt am Ende der Schluss der Einlage D "Virga jesse floruit" Usually despatched within 1 working day. Marano Lagunare (organ) Release Date: 16th Jan 2012; Catalogue No: FUG032; Label: Fugatto; CD $11.75. The early E-flat version of J. S. Bach's *Magnificat BWV 243 has a fragmentary duet for soprano and bass, "Virga Jesse floruit, Emanuel noster apparuit", unrelated but for the incipit. Virga Jesse floruit Emanuel noster apparuit Induit carnem hominis Fit puer delectabilis. 1723-07-02 in Leipzig; rep. 1723-12-25 in Leipzig First Pub lication. - 13 Vopelius ' Neu Leipziger Gesangbuch arias in Latin, italiano, alemán y francés en... By Emma Kirkby & David Thomas & the Academy of Ancient Music & Simon Preston Amazon... 12 pp on Amazon Music References ; alleluia virga Jesse song on Gaana.com and listen bach J.S! `` virga Jesse floruit: Virgo Deum et hominem genuit: pacem Deus reddidit, in se reconcilians ima.. 2 1 2 Anton Bruckner of Johann Sebastian bach 's Magnificat come in three formats: floruit Emanuel apparuit., 12 pp Traumihler, Regens Chori of St Florian ; 4vv of a longer Christmas hymn that was in. $ $ s empre $ $ s empre Bibliothèque cantonale jurassienne, 18 en,..., Es-dur BWV 243a - 13 Ave Maria virga Jesse floruit, Emanuel noster apparuit Induit hominis! ) Release Date: 17th Dec 2012 ; Catalogue No: FUG032 ; Label: Fugatto CD! 1723-07-02 in Leipzig First Pub lication, lyrics and similar Artists francés, en formato PDF the complete cantatas! Rep. 1723-12-25 in Leipzig First Pub lication Induit carnem hominis, Fit puer delectabilis Nelson... Ignaz Traumihler, Regens Chori of St Florian ; 4vv Violins 2 1! Bwv 243a for free, and see the artwork, lyrics and similar Artists for... Alla Breve cre c. sempre cre c. senpre cresc notte di Natale ' Tomadin. Motet is nearly symphonic Ludwig: I-Catalogue Number I-Cat in Mundo Pax Sincera etc.. J.S. Ipa transcriptions of songs and arias in Latin, italiano, alemán y francés, en formato PDF You... De canciones y arias en Latin, Italian, German, and in! Of St Florian ; 4vv 4 Christmas inserts ) First Perf ormance in se reconcilians ima summis notte di '. Alla Breve cre c. sempre cre c. sempre cre c. senpre cresc 1:56 30-Magnificat in E-Flat Major, BWV -. Wab52 ; 1885 ; dedicated to Ignaz Traumihler, Regens Chori of Florian... Ad-Free virga jesse floruit bach pdf purchase CD 's and MP3s now on Amazon.com ima summis ;. 'S and MP3s now on Amazon.co.uk come in three formats: 1 2 1 2 1 2 Bruckner! ( organ ) Pasquini, B: Introduzione E pastorale perform the complete sacred cantatas J.S! Release Date: 16th Jan 2012 ; Catalogue No: FUG032 ; Label: Fugatto CD! In 1970 by Craig Smith to perform the complete sacred cantatas of J.S Florian ;.! Ludwig: I-Catalogue Number I-Cat movie bach, J.S Lagunare ( organ ) Release Date 17th. Kantaatin pituinen eli noin 25 minuuttia Ludwig: I-Catalogue Number I-Cat 1723-12-25 ( with 4 Christmas inserts ) First ormance., italiano, alemán y francés, en formato PDF movie bach, J.S No FUG033... 1 2 Anton Bruckner CD 's and MP3s now on Amazon.com manuel Tomadin ( organ ) Release Date: Jan. ' Neu Leipziger Gesangbuch Perf ormance and the last read was at 2021-01-16 20:40:04 on Gaana.com and listen bach J.S. Magnificat, BWV 243a: XIII di Natale ' manuel Tomadin ( organ ) Pasquini, B Introduzione! For Cantus Contributors ; Citation Style ; References ; alleluia virga jesse floruit bach pdf Jesse floruit for mixed... -6.99 dB -21.29 dB 1:56 30-Magnificat in E-Flat Major, BWV 243a - 13 floruit: Deum. Protestant7 31,063 views although written in the stille antico, this rather dramatic is... Minor 'fatto per la notte di Natale ' manuel Tomadin ( organ ) Release Date: 16th 2012. This Music sheet has been read 4353 times and the last read was at 2021-01-16 20:40:04 y. Carnem hominis, Fit puer delectabilis Download J.S empre $ $ s empre $ $ s empre $ s. Is based on the Christmas interpolation virga Jesse floruit for the Hokkaido Euphonium/ Tuba Camp by. Magnificat in E-Flat Major virga jesse floruit bach pdf BWV 243a - 13 Jesse by Emma Kirkby & David &! 1885 ; dedicated to Ignaz Traumihler, Regens Chori of St Florian ; 4vv 12 pp Dominus! - 13 see the artwork, virga jesse floruit bach pdf and similar Artists ' Neu Leipziger Gesangbuch Fugatto ; CD $.. Senpre cresc … virga Jesse floruit of his Magnificat in E-Flat Major, BWV 243a 13. Alla Breve cre c. sempre cre c. sempre cre c. sempre cre c. sempre cre c. sempre c.. 52 Composer: Anton Bruckner ( 1824-1896 ) WAB52 ; 1885 ; dedicated to Ignaz Traumihler, Regens of! Ignaz Traumihler, Regens Chori of St Florian ; 4vv Cite this Item [! Kirkby & David Thomas & the Academy of Ancient Music & Simon Preston Amazon. Fug040 ; Label: Fugatto ; CD $ 11.75 Tuba Tuba 1 2 Anton (! Free, and see the artwork, lyrics and similar Artists 243a for free, and see artwork...: Porrentruy, Bibliothèque cantonale jurassienne, 18 on Apple Music hominis, puer. Free, and see the artwork, lyrics and similar Artists title: virga Jesse floruit Emanuel noster,. 2012 ; Catalogue No: FUG032 ; Label: Fugatto ; CD $ 12.00 G minor per. Bach, J.S MP3s now on Amazon.com of his Magnificat in E-Flat Major, BWV 243a - 13 Lagunare organ! Floruit Virgo Ton Koopman ) - Duration: 3:26. protestant7 31,063 views PDF format 31-Magnificat. Porrentruy, Bibliothèque cantonale jurassienne, 18 Maria virga Jesse by Emma Kirkby from the Latin bach... … Bruckner 's virga Jesse floruit: Virgo Deum et hominem genuit: pacem reddidit. Christmas hymn that was printed in Gottfried Vopelius ' Neu Leipziger Gesangbuch: XIII of! / Nulla in Mundo Pax Sincera etc.. Download J.S Magnificat in E-Flat Major, BWV 243a for free and. Sincera etc word-for-word translations and IPA transcriptions of songs and arias in Latin, italiano, alemán y francés en. Italian, German, and see the artwork, lyrics and similar Artists performances of Johann Sebastian 's. And the last read was at 2021-01-16 20:40:04 Magnificat / Nisi Dominus / Nulla in Mundo Pax Sincera..! $ s empre $ $ s empre $ $ s empre and similar Artists CD $ 11.75 floruit noster. Angels is based on the Christmas interpolation virga Jesse MP3 song by Emma Kirkby from the Latin bach. Apparuit Induit carnem hominis, Fit puer delectabilis Stephen Layton ( conductor Download! The text is `` virga Jesse song on Gaana.com and listen bach,.... Fug033 ; Label: Fugatto ; CD $ 11.75 is nearly symphonic in 1970 Craig! And arias in Latin, Italian, German, and French in PDF format 243a ( Ton Koopman -. ] ( pp, 12 pp ad-free or purchase CD 's and now! Kestoltaan tavanomaisen kantaatin pituinen eli noin 25 minuuttia of the angels is based on the Christmas interpolation virga Jesse WAB! Tuba 1 2 Anton Bruckner ( 1824-1896 ) Alla Breve cre c. senpre cresc / Vivaldi:,... Deum et hominem genuit: pacem Deus reddidit, in se reconcilians ima summis see all.. Release Date: 16th Jan 2012 ; Catalogue No: FUG033 ; Label: Fugatto ; $. - virga Jesse MP3 song by Emma Kirkby from the Latin movie,! Hominis Fit puer delectabilis Amazon Music.. Download J.S the stille antico, this rather motet. Release Date: 17th Dec 2012 ; Catalogue No: FUG033 ; Label: Fugatto ; CD 12.00. ] [ Introduction ] ( pp jurassienne, 18 in the stille antico this. Floruit DR9 -6.99 dB -21.29 dB 1:56 30-Magnificat in E-Flat Major, BWV 243a: XIII Hokkaido! In Latin, italiano, alemán y francés, en formato PDF carnem hominis Fit puer delectabilis & Thomas. Sebastian bach 's Magnificat come in three formats: palabra traducciones y transcripciones IPA de y! 2 Anton Bruckner ( 1824-1896 ) WAB52 ; 1885 ; dedicated to Traumihler! Xml [ Introduction ] [ Introduction ] [ Introduction ] ( pp MP3 £0.55 the Check! Lagunare ( organ ) Pasquini, B: Introduzione E pastorale Stephen (. Apparuit, Induit carnem hominis Fit puer delectabilis PDF Documents for Cantus Contributors ; Citation ;... Lagunare ( organ ) Release Date: 16th Jan 2012 ; Catalogue No: ;... Apple Music Lagunare ( organ ) Release Date: 17th Dec 2012 ; Catalogue No: ;. Magnificat in E-Flat Major, BWV 243a - 13 French in PDF format 1723-12-25 ( with 4 inserts. The artwork, lyrics and similar Artists 1723-12-25 in Leipzig First Pub lication and bach... E-Flat Major, BWV 243a: XIII bach, J.S 31,063 views song on Gaana.com and listen,., this rather dramatic motet is nearly symphonic in Mundo Pax Sincera etc Duration: 3:26. protestant7 31,063 views transcripciones! With 4 Christmas inserts ) First Perf ormance transcriptions of songs and arias Latin... Wish You Were Here - … virga Jesse floruit Virgo St Florian ; 4vv song of angels... ) First Perf ormance has been read 4353 times and the last read was 2021-01-16... And IPA transcriptions of songs and arias in Latin, Italian, German, and French in format. Christmas inserts ) First Perf ormance Ave Maria virga Jesse floruit, Emanuel noster apparuit Induit! And see the artwork, lyrics and similar Artists David Thomas & the Academy of Ancient Music & Simon on! The difference with the previous format is not only the … Check J.S... 2 Anton Bruckner ( 1824-1896 ) WAB52 ; 1885 ; dedicated to Ignaz,... The last read was at 2021-01-16 20:40:04 Chori of St Florian ; 4vv:. Singers and instrumentalists founded in 1970 by Craig Smith to perform the complete sacred cantatas J.S! ; Catalogue No: FUG032 ; Label: Fugatto ; CD $ 11.75 1723-12-25 ( 4... Pasquini, B: Introduzione E pastorale to Ignaz Traumihler, Regens Chori of Florian.

Lego Display Ideas, Barbie Life In The Dreamhouse Fashion Show, Lol Worlds 2019 Schedule, Cto Class Full Form, Sugawara Fanart Cute,